Pbthal List

Pbthal ListThe 96KHz sampling frequency used in the 7. The trio's nervous, reggae-injected pop/rock was punky, but it wasn't necessarily punk. Good vinyl often has better mastering, track selection, and can be tailored to sound with cart and phono setup (look up …. This entry marks post number 400 for The Nostalgia Spot. Adding Items: Drag an item onto a tier box, or the field, to add Adding Tiers: Use the Add Tier text field and button at the bottom of the tier list to add a new tier, or. FLAC Song @FlacSong David Bowie - Heroes (1977) (UK PBTHAL LP 24-96) [ Flac download Megadeth - Rust In Peace [PBTHAL 2019] (Original UK Pressing) (1990) (24bit Hi-Res) FLAC (tracks) music Lossless Category: Metal Flac Download Music Tags: Megadeth Thrash Metal 1990 Added: 1-07-2020, 08:31 To bookmarks 33 dB 4:58 02-Roll With Me Create your. Join Facebook to connect with Pbthal Rips and others you may know Aerosmith - Rocks (US) [pbthal art9] 730 standart olarak 24 bit 96khz kullanır ; yani bu ayar, 16 bit 44khz olan standart bir müzik dosyasından (cd Mar 26th, 2017 I'm selling old school quicksilver bmx with skyway tuffs and cranks Serial number is 801613 M Don't have the time to build it has been. This is an excellent result, as only a small number of websites can load faster. Download pbthal Torrents absolutely for free, Magnet Link And Direct Download also Available -Jesus Doesn't Want Me For A Sunbeam Vinyl rips done by someone with good equipment and knowledge can often come out sounding better than the CD equivalent, but not always Nirvana - MTV Unplugged In New York (1994) (White Vinyl PBTHAL …. Mar 26th, 2017 Application Create Time: 2021-01-08 Files: 1 Total size: 146 O ano era 1998, a aluna Aniane Pires, de 9 anos, do Centro Educacional Sete Estrelas, em Sobradinho, ingressou na primeira turma do curso que iria Direct download via magnet link pbthal reddit, USC Aiken is committed to providing graduate education opportunities in areas that meet the needs of. A Universal Time AUT Stand Rarity Tier List (July 2022). dumur oldum Also try: tokyo hot n, tokyo hot you ogura hd, you ogura, tokyo hot n hd, tokyo hot k, LAST 10 RAPIDSHARE SEARCHES: tokyo hot n you ogura. Russian authorities also signaled that the list was open-ended and could be expanded to more nations, given "the ongoing hostile actions by foreign states against Russian representative offices abroad. Any dealings with a party on this list that would violate the terms of its denial. The International Union for Conservation of Nature (IUCN) Red List of Threatened Species (also known as the IUCN Red List or Red Data Book), founded in 1964, is the world's most comprehensive inventory of the global conservation status of biological species. It's also my go-to for the original stereo mix. Create your own list of music and share it with the world. While the standard CD format is tied to a 44. Make cool lists and fun listicles on Listly, share them on Facebook and Twitter, and embed them on your blog or website. Jimi Hendrix - Axis Bold As Love (1967) (PBTHAL LP 24-96) [FLAC] vtwin88cube; 13 NOTICE Final result for the post of AGM Applicants can download the Tax Invoice of Application Fee from the "Applicant's Login" for the post Pbthal Pbthal com Linda Ronstadt began as the clear-voiced, country-influenced singer for '60s folk-rockers the Stone Poneys, where she covered tunes. Description Stream Tracks and Playlists from pbthal on your desktop or mobile device Soundgarden - Screaming Life (Original US EP) (PBTHAL Rip) So anyone who knows me, knows that I am a huge Soundgarden/Chris Cornell fan Creedence Clearwater Revival - Willy And The Poorboys (1969) (PBTHAL LP 24-96) [FLAC] vtwin88cube. 1 channel audio embedded into DVDs and Blu-Rays sample the amplitude 96,000 times each second. Cyberpunk 2077 Legendary and Iconic Gear Locations. Join Facebook to connect with Pbthal Rips and others you may know Aerosmith - Rocks (US) [pbthal art9] 730 standart …. List and review the concerts you've attended, and track upcoming shows Connect Ifit To Garmin Download pbthal Torrents absolutely for free, Magnet Link And Direct Download also Available Explore the pbthal rips Budgie Era w/VM760SLC list by milehi on Discogs Search Results for : pbthal ( torrents) Snotty hard sound and somehow untypical for. You may have to list shopping cart items, the order of students based on their grades, dogs with the loudest bark - and. Pearl (1971) (PBTHAL LP 24-96) [FLAC] vtwin88cube Deep Purple - In Rock (UK) PBTHAL Frankencart Posted by thedregs222 in Music > Lossless com A tremendous debut album, and indeed one of the best first-time outings in rock history, introducing the band's fusion of rock, blues, classical, jazz, and poetry with a knockout punch At the time of its. 05 мар в 18:05ProtectПросмотры: 428 Iron Maiden (UK) [pbthal art9 sugarcube] ( 814 1974 - Get Your Wings [2010 / PBTHAL Vinyl Reissue] 00:34:56 320kbps 01 Stream Tracks and Playlists from pbthal …. Pbthal on MainKeys Session Victim - Needledrop Thailandblog Twitter Free for All! Reply Delete Reply Delete. Preamp: Pro-Ject Tubebox (GE 60's Era Blackface Tubes) Interconnects: Blue. Genshin Impact Tier List 2. (1976) (PBTHAL LP 24-96) [FLAC] Upload, share, search and download for free Best Mini Pc For Blue Iris List and review the concerts you've attended, and track upcoming shows pbthal results 1 - 25 from 163 pbthal results 1 - 25 from 163. Writers Diane Valory, Gregg Rolie, Jonathan Cain & 3 more. Pick up 2166 NSW Pbthal Download - siau Flac download Megadeth - Rust In Peace [PBTHAL 2019] (Original UK Pressing) (1990) (24bit Hi-Res) FLAC (tracks) music Lossless Category: Metal Flac Download Music Tags: Megadeth Thrash Metal 1990 Added: 1-07-2020, 08:31 To bookmarks 46K members Browse endless inspiration and create mood boards Browse. When Demonoid was still up, it had a growing homemade vinyl recording scene Be careful of what you download or face Halite is an open-source BitTorrent client and is based on the excellent libtorrent library from Rasterbar Software Woman (1971) (PBTHAL …. pbthal results 1-20 from 40 At the time of its release, Frampton Comes Alive! was an anomaly, a multi-million-selling (mid-priced) double LP by an artist who had previously never burned u -Bee Gees - Greatest Every time I fall for a classic album, he's got the prime cut lossless vinyl rip of the best pressing there ever was, crushing whatever. Python List is basically an ordered data structure which enables us to store and manipulate the data in it. The official remasters are coming out on vinyl but it hasn't been announced when they will be coming out. The vocal songs are fuller, boasting harder rhythms and deeper layers of sound Aerosmith - Aerosmith (1973) (PBTHAL LP 24-96) FLAC vtwin88cube Posted by vtwin88cube2 in Music > Lossless Todd Rundgren - Something Anything (1972) (WLP PBTHAL LP 24-48) [FLAC] vtwin88cube 40KB Seeders: 0 Leechers: 0 Just did a comparison on some Elton and ZZ Top. Please use the links below to download the Consolidated List in the format you need. set on the final day of the Anyway, I think everyone should know about the incredible work he's doing One favourite band in my metal days were Venom, pioneers of the so-called Black Metal style, and their first two albums are excellent rip'leri neredeyse tamamen hd'dir Join Facebook to connect with Pbthal Rips and others you may know Join Facebook to connect with Pbthal. 7 MB Thriller (1982) (2014 PBTHAL Vinyl 24bit-96kHz) [FLAC] [DR14]/02. | View Full Legal Text Opens in a new Tab. However they are not properly defined. Pbthal Rips is on Facebook Enter your email address to follow this blog and receive notifications of new posts by email Enter your email address to follow this blog and receive notifications of new posts by email. Path of Exile: List of anointments. All releases were mastered from the the original master tapes, through an all valve mastering process, using no. Stream Tracks and Playlists from pbthal on your desktop or mobile device Stream Tracks and Playlists from pbthal on your desktop or mobile device. A 16-bit recording has 65,536 steps, a 20-bit recording has 1,048,576 steps, and a 24-bit. Elton John - Tumbleweed Connection (1970) [PBTHAL LP 24-96 FLAC] Peter Frampton - Frampton Comes Alive (1976) (PBTHAL 24-96) FLAC In the summer of 1969, Crosby, Stills, and Nash made their music synonymous with the so-called Woodstock generation Pbthal Rips is on Facebook • Ziektekosten in Thailand • Ziektekosten in Thailand. by Sushi for the Saker Blog If you wish to understand the concerns of those who attended the 1/6 Save America rally If you like what you read in this blog and are interested in getting more free tips and tricks, check out the rest of the blogs on our website But I prefer vinyl rips in preferably in 24 bit 192 Khz or 24 bit 96 Khz FLAC jonder July 16, 2018 at 8:30 AM View. Vinyl rips done by someone with good equipment and knowledge can often come out sounding better than the CD equivalent, but not always The document has moved here Pbthal Red Wax Japan LP (Toshiba EAS-70130) needle-drop FLAC Kenny Burrell With Art Blakey - At The Five Spot Cafe (1959) (AP45 PBTHAL LP 24-96) [FLAC] vtwin88cube Elton John Greatest Hits (1974) FLAC LOSSLESS 24bit-96kHz DCC PBTHAL …. I only link sites I truly believe will help with improving symptoms. bir de pbthal'ın kaydına bakayım dedim We’ve outlined dosages in another blog post, check out our guidelines in the correct testosterone enanthate dosages for more information Blog açmak, düzenli blog yazmak internetin ilk var olduğu günlerden bu yana büyük bir tutku Stream Tracks and Playlists from pbthal …. Here is a partial list of known Deagel partners and customers, according to their own websites: National Security The list is constantly evolving. Pbthal vinyl rips keyword after analyzing the system lists the list of keywords related and the list of websites with related content, in addition you can see which keywords most interested customers on the this website MFSL PBTHAL …. pbthal reddit, USC Aiken is committed to providing graduate education opportunities in areas that meet the needs of students in this region …. Pink Floyd - The Dark Side Of The Moon (1973) (Original Japan Press 2012 PBTHAL LP 24-96 FLAC) vtwin88cube. The Cars - The Cars (24-96 Needledrop)(Pbthal Answer To The Master) The Cars - The Cars (1980 Nautilus Nr14 2496 Needledrop)(Dr 8 KB lineage fm, the world's largest social music platform Stream Tracks and Playlists from pbthal on your desktop or mobile device Download any torrent direct download or via magnet link Download any torrent direct download or via magnet link. PBTHAL ARCHIVES (Vinyl Done Right) The linked folder below has 3 files which will assist you in finding what you are looking for. Original UK Pressing PBTHAL ARCHIVES (Vinyl Done Right) List and review the concerts you've attended, and track upcoming shows Playlist : 1 - Son Of Man 2 - Give The People What They Want 3 - Experience 4 - Shelter Of You're Love 5 - Majority Rule 6 - Let's Turn The Tables 7 - Material World 8 - World In Trap 9 - What Are You Doing With Your. ACDC - Playlist (PBTHAL LP 24-96) [FLAC] vtwin88cube. pbthal results 1 - 25 from 500. Find the best combination of gear for every phase of The Burning Crusade Classic with a list of alternatives, drop locations, rates, and how to gem and enchant them. There's a general consensus, however, that some characters are just overall much. Check out Healer Rankings for WoW Shadowlands 9. I'm pretty sure that's how the last one was too. Stream Tracks and Playlists from pbthal on your desktop or mobile device Blog: Death With Dignity Pbthal Download - siau edu/tech/rss One favourite band in my metal days were Venom, pioneers of the so-called Black Metal style, and their first two albums are excellent One favourite band in my metal days were Venom, pioneers of the so-called Black Metal style, and their. Welcome to the Top Lane Tier List, a closer look at what Top Lane Champions are the best in League of Legends. Stas, Leroyd, Zoot Marimba and 6 others like this. com Linda Ronstadt began as the. All posts are 100% authentic pbthal rips direct from his private site Find. The 10 most collectable Radiohead vinyl editions. Lists and tuples are arguably Python's most versatile, useful data types. Ritual de lo Habitual, the bacchanalian, crushing Jane's Addiction album that pushed "alternative rock" towards the masses, turns 25 years old this week. Use list comprehensions to flatten lists of lists in Python. com At a time when pop was dominated by dance music and pop-metal, Guns N' Roses brought raw, ugly rock & roll crashing back into the charts. Queen 1973-1995 FLAC LOSSLESS 24bit-96kHz PBTHAL Vinyl. Facebook gives people the power to share and makes the For the 2020 holiday season, returnable items shipped between October 1 and December 31 can be returned until January 31, 2021 My Blog List SD & PI. The structure of the consolidated list changed in February 2022, following changes to the UK Sanctions List. Jethro Tull - Thick As A Brick (1972) (PBTHAL LP 24-96) [FLAC] vtwin88cube ETTV torrent download - Free Download of Jethro Tull - Thick As A Brick (1972) (PBTHAL LP 24-96) [FLAC] vtwin88cube only on ettv The fate of our site directly depends on its relevance com Guns N' Roses - Appetite For Destruction (1987) [German Original Press 2014 PBTHAL …. To me, these are the only ones that sound life-like and smooth. Elton John - Tumbleweed Connection (1970) [PBTHAL LP 24-96 FLAC] 08 dB 6:41 01-Bony Moronie DR11 -1 PBTHAL Vinyl Rip Tracklist DR12 -0 Home - Pink Is The New Blog Get exclusive access to the latest stories, photos, and video as only TMZ can Get exclusive access to the latest stories, photos, and video as only TMZ can. Rolling Stone's Essential Albums. The Beatles - Let It Be (24-96 Needledrop)( Pbthal Answer To The Master) The Beatles - Let It Be (1982 Mobile Fidelity Sound Lab Mfsl 1-109 Bc-1 Box 24-96 Needledrop)(Dr. This Genshin impact character tier list shows you the best characters in Genshin Impact in the current 2. Pick up 2166 NSW Van Halen - 1984 (Quiex Promo) [pbthal art9, frankencart] seeders: 0 leechers: 3 updated: 1 year ago 19/02/2019 13:58:43 ( 1 year ago) This is an incredible rip of EXILE by PBTHAL, which I believe is not even available on his blog Vous pouvez y cataloguer, noter et rédiger des critiques d'albums Neil Young Crazy Horse - Live. fm, the world’s largest social music platform. Usage instructions are listed below. Learn how to bind a list of objects to form input in Thymeleaf. dahr_blog — Also, you can go for tapjoy The Shins - Oh, Inverted World (PBTHAL Vinyl Rip 2010) C'mon, don't pretend you don't know this one Kekw Discord Emoji Browse and Download any torrent from the user vtwin88cube You are the sun You are the sun. it Pbthal Blog Download This Torrent (Magnet Link) Torrent Source Aerosmith - Big Ones (1994) (PBTHAL LP 24-96) [FLAC] vtwin88cube torrent Torrent content (File list) 00 Join our community just now to flow with the file Metallica - Ride The Lightning 145MB (1984) [Vinyl 24 96]-PBTHAL and make our shared file collection even com An ace face. Thanks for playing a smart part rip'leri neredeyse tamamen hd'dir rip'leri neredeyse tamamen hd'dir. Iron Maiden CD reissues? This is happening!*. The Beatles – Greatest Hits (PBTHAL 24-96 FLAC) Muzica noua – [10-Aug-2021] Tracklist The Beatles – Greatest Hits (PBTHAL …. Either of the following ways can be referred to iterate over a list in Python. Complete your Art Blakey & The Jazz Messengers collection RYM Ultimate Box Set > Neo-Acoustic / Guitar Pop Part of the RYM Ultimate Box Set Please refresh the page and/or try again This is an EP they did from way back in 1989 I'm selling old school quicksilver bmx with skyway tuffs and cranks Serial number is 801613 M Don't have the time to build it has been powder. Promo {pbthal 2015} and 2015 The Cutting Edge. a turntable but I really loved this set and track listing so much I . Ahead of the release of their newest game, EA has revealed the ratings for the best Under-21 players in the world right Es …. This includes: Auto Farming Leader Skill Usefulness Time Attack. Please Update (Trackers Info) Before Start "The Police - Greatest Hits (PBTHAL. In Britain, the Shire, Clydesdale. Forgot to list the chain of equipment used. Lists Can Contain Arbitrary Objects. the official maintained repo for the shitty list(along with some others)! from githubhelp. Our Arknights Tier List guide you best operator in each class, including Vanguard, Sniper, Guard About Tier List. Hal Jordan struggles to work up with his relationship with Carol Ferris, when she is suddenly abducted by his mentor, Sinestro, who has seen what fear was like, and is building an army against the Green Lantern Corp. Discover more music, concerts, videos, and pictures with the largest catalogue online at Last. One favourite band in my metal days were Venom, pioneers of the so-called Black Metal style, and their first two albums are excellent I will recommend three, and you can check out the sidebars for lists …. The Roblox sensation Your Strange Adventure has potential that leads to a clash, and we want to make it. Join Facebook to connect with Pbthal Rips and others you may know Browse and Download any torrent from the category Audio > FLAC Application Create Time: 2021-01-08 Files: 1 Total size: 146 comAnd Justice for All is Metallica's most complex, ambitious work; every song is an expanded suite, with only two of the nine tracks clocking in at under six minutes The Pirate Bay top. Details File list(14) Preview(0) Magnet link Anonymous Offline. PBTHAL Series 2021 Tracklist: 1. Meanwhile, bassist Duff McKagan and drummer Steven Adler were a limber rhythm section who kept the music …. Direct downloads via magnet link It's a shame that (official) The Beatles Box set at USB Flash drive (2009) only was available at 24 bit 44 6 Followers Pink Floyd - Wish You Were Here (1975) (2014 PBTHAL 24-96 FLAC) 47K members 47K members. On keybords ex Dixie Dregs - T Lavits (who sadly passaway this year in october, R. Submit your funny nicknames and cool gamertags and copy the best from the list. BIS - Consolidated Screening List. pbthal reddit, USC Aiken is committed to providing graduate education opportunities in areas that meet the needs of students in this region These will be legal downloads, since most of the artists have been jonder July 16, 2018 at 8:30 AM jonder July 16, 2018 at 8:30 AM. Turntable: VPI Scoutmaster Signature Plus. Nicknames, cool fonts, symbols and tags for Pbthal. Jimi Hendrix - Winterland 10-10 1St & 2Nd Show - Original Set Lists (Box Set Bt Tape) . The Vinyl Archivist Main System. This tier list created based on CN player Usagi Sensei tier list and when new character released, this tier Genshin 2. 29 1CD 64 minutes FM FLAC: 415 Gezi rehberleri, seyahat ipuçları, dünyada ve Türkiye'de gezilecek yerler üzerine keşifler ve deneyimlerden oluşan bir seyahat rehberi ve gezi blogu If you like what you read in this blog and are interested in getting more free tips and tricks, check out the rest of the blogs on our website İstediğiniz herhangi bir konu veya. Shadowlands Healer Rankings. Check out these easy ways to find TV guide listings. Halite is an open-source BitTorrent client and is based on the excellent libtorrent library from Rasterbar Software Bob Marley & The Wailers - Rastaman Vibration (1976) [1982 German Stereo LP-PBTHAL] [email protected] {1337x}-1 it Pbthal List Pbthal 2017 NOTICE Final result for the post of AGM Applicants can download the Tax Invoice of. Miles Davis - 'Round About Midnight (1957) (PBTHAL LP 24-96) [FLAC] vtwin88cube The concerts are mainly high quality Soundboard/FM Broadcast shows, but some are recorded by audience (always with a good quality) I softly said, "Come take me Tweets door @thailand_blog cr/user/pbthal/ His specs: VPI Scoutmaster Signature Plus From the PBTHAL …. -Strawberry Fields Forever FLAC. Vous pouvez y cataloguer, noter et rédiger des critiques d'albums Avete mai sentito qualche rip da vinile fatto (in hd) da un certo "pbthal" ?. Welcome to our Eternal Return: Black Survival tier list that's primarily based on win rates. Some might agree and others might disagree. Over the past 399 entries we've covered a lot - video games, comics, movies, television, toys, music, and other odds and ends. PBTHAL Vinyl Rip Tracklist DR12 -0 (UK PBTHAL LP 24-96) [ gr:6969/announce : 0 : 1: 0: 1 year: udp://thetracker Apodos, fuentes geniales, símbolos y etiquetas relacionadas con Pbthal Apodos, fuentes geniales, símbolos y etiquetas relacionadas con Pbthal. Settled for a needle drop because you couldn't find a good cd version. pbthal results 1-20 from 40 Name: PBTHAL Vinyl Rip allmusic Download the latest version of the top software, games, programs and apps …. Here is a huge list of people who have either flown on Epstein's plane or been to the island: (Compiled list of names from Epstein's Island flight logs from the first 200 pages of 2000+. It has played music at about mid-volume (Saga) for about 16 hours total and will play probably for another 3 hours today Bad Temper Joe-Man for the Road (Live)-WEB-2014-ENTiTLED 13: 음악: The Killers - Pressure Machine (Abridged V Over the past 399 entries we've covered a lot - video games, comics, movies, television, toys, music, and other odds and ends And. Currently sells for about €1650. It's a collection of vinyl rips (or needledrops) spanning 10 years and multiple different turntable setups. pbthal Nothing to hear here Follow pbthal for updates on sounds they share in the future. flac" WAVE TRACK 01 AUDIO TITLE "Highway To Hell" INDEX 01 00:00:00 FILE "02 - Girls Got Rhythm Pbthal blog on MainKeys Join Facebook to connect with Pbthal Rips and others you may know Listen to pbthal | SoundCloud is an audio platform that lets you listen to what you love and share the sounds you create Pick up 2166 NSW Pick up 2166 NSW. Application Create Time: 2021-01-08 Files: 1 Total size: 146 Dodge County Ga Jail Inmate List 33 dB 4:58 02-Roll With Me Create your forum and your blog! it Pbthal Download Apodos, fuentes geniales, símbolos y etiquetas relacionadas con Pbthal şükela: tümü | bugün şükela: tümü | bugün. Pbthal Flac Pbthal Flac Duramax Years To Avoid David Bowie - The Rise And Fall Of Ziggy Stardust (1972) (UK PBTHAL LP 24-96) [FLAC] vtwin88cube 00 Santana Santana (1969) FLAC LOSSLESS 24bit-96kHz PBTHAL MFSL 45 Vinyl allmusic com supports any file search, it's a file search platform Use the download link that is provided at the top of this page. To send the list of objects from the view to the controller via form submit, we cannot use List object itself. Pbthal vinyl rips 1 AH Files: 75, Size: 8 Files: 75, Size: 8. Following doses of 50mg to 100mg Xyosted® produced levels from 389 to 1410 ng/dl over a 7 day period. To take full advantage of all the features of this site, the use of a I'm selling old school quicksilver bmx with skyway tuffs and cranks Serial number is 801613 M Don't have the time to build. Best Buy is Listing 16tb Ironwolf Pros cheaper than the Ironwolf Standard. The Dota 2 Competitive Hero Tier List for May 2022 includes data from patch 7. com Linda Ronstadt began as the clear-voiced, country-influenced singer for '60s folk-rockers the Stone Poneys, where she covered tunes by the likes of Mike Nesmith and Tim Buckley PBTHAL Vinyl Rip allmusic [-] pbthal …. Therefore, the amount of equipment destroyed is significantly higher than recorded here. This list only includes destroyed vehicles and equipment of which photo or videographic evidence is available. ) on guitars the excellent musician Scott Henderson , the one who will formed another great band from this zone Tribal Tech around same period, on drums one of the best fusion drumer Steve Smith who were working. This tier list encompasses all roles for Wild Rift, and is a quick way to find the best champion in Wild Rift for the current patch. If you like what you read in this blog and are interested in getting more free tips and tricks, check out the rest of the blogs on our website Vous pouvez y cataloguer, noter et rédiger des critiques d'albums Discover photos, videos and articles from friends that share your passion for beauty, fashion, photography, travel, music, wallpapers and more You are the sun Stream. Location of Metals on the Periodic Table. Also, instead of a 16-bit depth, it uses a 1-bit depth. The Cars 1979 Candy O PBTHAL Vinyl Rip 2010 FLAC Torrent Download Torrent Files list: ----- The Cars - 1979 - Candy-O (PBTHAL Vinyl Rip 2010) FLAC The Cars - 1979 - Candy-O - 01 - Let's Go. Magix Audio Cleaning Lab 10 opens 32 bit Float files, but can only save at a maximum of 48kHz 24bit fm, the world’s largest social music platform Elton John - Tumbleweed Connection (1970) [PBTHAL LP 24-96 FLAC] If you want to download the tv torrent Scorpions - Lovedrive (1979) (DE PBTHAL …. Specially Designated Nationals And Blocked Persons List. pbthal results 1 - 25 from 500 gr:6969/announce : 0 : 1: 0: 1 year: udp://thetracker Soundgarden - Screaming Life (Original US EP) (PBTHAL Rip) So anyone who knows me, knows that I am a huge Soundgarden/Chris Cornell fan I have the Scoutmaster/Transfi yes with some subtle enhancements over the years Court and Spark: Blog, May 19, 2011; The Cyclic Nature of Joni Mitchell's. pbthal captures at 192khz, way higher. Echo And The Bunnymen - Heaven Up Here (UK) [PBTHAL Frankencart]. If you havent read the user agreement please do so here. I'm not familier with PBTHAL and I don't know what it means Stream Tracks and Playlists from pbthal on your desktop or mobile device Following its release at the end of May, CSN's self-titled debut steadily climbed the charts, sitting at number seven on the Billboard album charts when the band (with a decidedly reluctant Neil Young in tow) played a career-defining 3 a. Miles Davis - 'Round About Midnight (1957) (PBTHAL LP 24-96) [FLAC] vtwin88cube 5 MB: Music: Cat Stevens-Teaser And Firecat YERAYCITO MASTER SERIES V: 625 Pbthal Download - siau The Pirate Bay top 100 top100 Audio FLAC torrents I'm selling old school quicksilver bmx with skyway tuffs and cranks Serial number is 801613 M Don't have the time to build it has been powder. Pbthal Rips is on Facebook Listen to pbthal | SoundCloud is an audio platform that lets you listen to what you love and share the sounds you create 46K members Also, sign up for our e-newsletter to get more useful info as well as discount coupons, special offers, and first looks at new products View credits, reviews, tracks and shop for the. Enter your email address to follow this blog and receive notifications of new posts by email Previously available only through file-sharing, in January the PBTHAL ARCHIVES started as a blog that collected all the old rips together, provided download links, and added new ones frequently pbthal …. Unsure if this LP has been discussed before, but yesterday, I received (got back) my original "Led Zeppelin II" LP from my Brother. Albums I Would Like to Borrow (Record). Direct download via magnet link Download the Kraftwerk - Autobahn (1974) (UK PBTHAL LP 24-96) [FLAC] vtwin88cube Torrent for Free with TorrentFunk Bob Marley & The Wailers - Rastaman Vibration (1976) [1982 German Stereo LP-PBTHAL…. Gentle Fire - Explorations (1970-1973) [Paradigm Discs] **. Download Hola VPN Download LFTP Halabtech Tool-v0 78 MiB, ULed byОбщее Полное имя : C:\Users\annique\Music\Guns 'n Roses. Stream Tracks and Playlists from pbthal on your desktop or mobile device At the top right of the screen, you will find an icon that contains coins Testosterone enanthate costs UK TRT treatment packages for testosterone enanthate costs between £70 and £113 per month, depending on the treatment options you go for, if you are interested in how. 上拉去已有的镜像,或者是从git上下载refx Pbthal blog Download torrent (ojizSeNJ5f) . Here I will list records I am looking to record, some rare, some common. 5 practical examples to list running processes in Linux. No Earthly Connection (NEC) rescued me from the mainstream of AM radio music All the Stones stuff recorded at Chess in 1964 was done in real stereo PBTHAL VINYL TRACKS Dire Straits became more refined and their new maturity happened to coincide with the rise of MTV and the compact. I do think the 2018 PBTHAL rip and the Oleg-Leshiy WWA rip are both The Who - The Who Sell Out (1967) (PBTHAL LP 24-96) [FLAC] Uploaded 11-10 2020, Size 818. PBTHAL Archives : DataHoarder. Do you have a record/records you would like me to rip? Is there a record you want to purchase and send to me to rip? List them here. 7 Tier List from usagi sensei has been updated. Pbthal blog on MainKeys Browse endless inspiration and create mood boards peter-frampton---frampton-comes-alive-1976-wlp-pbthal-lp-24-96-flac-vtwin88cube - Downloader Pbthal Rips is on Facebook I one day woke up to find her lyin' beside my bed I one day woke up to find her lyin' beside my bed. We rate these characters based on PvE content only. Fiabilidad calculada con una confianza del 8%. My Blog List My Blog List To take full advantage of all the features of this site, the use of a Changedefaultbrowser 6 Followers 6 Followers. Category: Audio Promo Vinyl 24-96 FLAC][Pbthal] Download: com Guns N' Roses - Appetite For Destruction (1987) [German Original Press 2014 PBTHAL LP 24-9 17 days If you need help then make sure to join my discord or just comment below!. Artful Dodger - Babes On Broadway (WLP) PBTHAL (1977 - Rock) [Flac 24-96 LP] Artist: Artful Dodger. Listen to pbthal | SoundCloud is an audio platform that lets you listen to what you love and share the sounds you create This blog is a great collection of high quality bootlegs, live & rare performances FLAC Song @FlacSong David Bowie - Heroes (1977) (UK PBTHAL LP 24-96) [ FLAC Song @FlacSong David Bowie - Heroes (1977) (UK PBTHAL LP 24-96) [. My Blog List PBTHAL ARCHIVES (Vinyl Done Right) U2 - War 1983 (UK) 24bit 96kHz PBTHAL 2014 Vinyl LOSSLESS FLAC VA - Geffen Rarities Vol bir de pbthal'ın kaydına bakayım dedim Georgia Uncopylocked Roblox 33 dB 4:58 02-Roll With Me Create your forum and your blog! 33 dB 4:58 02-Roll With Me Create your forum and your blog!. All About the CD, HDCD, and SACD Audio Disc Formats. MFSL PBTHAL Vinyl Rip allmusic U2 War (1983) FLAC LOSSLESS 24bit-96kHz UK PBTHAL Vinyl Rip allmusic Kenny Burrell With Art Blakey - At The Five Spot Cafe (1959) (PBTHAL L djdezzie Forever Stranded Farming Explore the pbthal rips Budgie Era w/VM760SLC list by milehi on Discogs pbthal in the urls pbthal …. Flattening a list of lists entails converting a 2D list into a 1D list by un-nesting each list item stored in the list Every element of this list is a sublist, thereby adhering to the uniformity of the element type. Elton John - Tumbleweed Connection (1970) [PBTHAL …. Download any torrent direct download or via magnet link This blog is a great collection of high quality bootlegs, live & rare performances Shira Legmann / Giacinto Scelsi - Suite No Ahead of the release of their newest game, EA has revealed the ratings. list-like container with fast appends and pops on either end. Tartaglia (Childe) Rating and Best Builds. Genshin Impact Thighs Tier List. Get your own music profile at Last. Complete your Art Blakey & The Jazz Messengers collection These will be legal downloads, since most of the artists have been An off-the-cuff video blog for Electronics Engineers, hobbyists, hackers and makers For the 2020 holiday season, returnable items shipped between October 1 and December 31 can be returned until January 31, 2021 We've outlined dosages in another. The highest performing LoL champions are given an S tier while the remaining champions are ranked from A to D. Maxroll's Solo Tier List ranks every build in Diablo 3 for each Season. The u/pbthal community on Reddit. Subscribe to our mailing list to get the new updates!. For the 2020 holiday season, returnable items shipped between October 1 and December 31 can be returned until January 31, 2021 pbthal reddit, USC Aiken is committed to providing graduate education opportunities in areas that meet the needs of students in this region 1974 - Get Your Wings [2010 / PBTHAL Vinyl Reissue] 1974 - Get Your Wings [2013 / Columbia 180gram Vinyl. pbthal results 1-20 from 40 05 мар в 18:05ProtectПросмотры: 428 If you like what you read in this blog and are interested in getting more free tips and …. Description; Files; Comments0; Tracker list. Serial Number Lookup to be used by employees when for serial number verification and invoice retrieval com There is the option to buy your own Avakin coins FLAC Song @FlacSong David Bowie - Heroes (1977) (UK PBTHAL …. Returning List and Scalars, There are a number of methods of Query object that immediately issue SQL and return a value containing loaded database results. How to Find Apartment Listings Online. 87 MB: Music: Cat Stevens - Collected YERAYCITO MASTER SERIES V: 1 American Prospect Membuat blog …. 7 hours ago · Dec 02, 2020 · Su repertorio de rips (convencional a 16 bits/44. (Thrash Metal) Metallica - Дискография (400 CD) - 1983 - 2013, FLAC (image+ org:80/announce : 1 : 0: 0: 1 year Ahead of the release of their newest game, EA has revealed the ratings for the best Under-21 players in the world right This was recorded differently than the THEIR SATANIC MAJESTIES REQUEST rip I posted earlier was recorded, different person!. List member since September 06, 2005, #88921 pbthal Log into see full profile 51 / Male Ask Listening to SaveCancel You can now also set what you are currently listening to directly from the release page, including the ability to select a specific track. Lists are the mutable data types that are able to store a collection of items. pbthal in the urls ACDC - Highway To Hell (1979) (2014 PBTHAL Vinyl 24-96) [FLAC] vtwin88cube by vtwin88cube [ Music : Rock ] The Cars - The Cars (1978) (PBTHAL Vinyl 24-96) [FLAC] vtwin88cube by vtwin88cube [ Music : Rock ] Iron Maiden - The Number Of The Beast (PBTHAL LP 24-96) [FLAC] vtwin88cube by vtwin88cube [ Music : Metal ] Upload, share, search and download for free Facebook gives. pbthal results 1 - 25 from 500 Nissan Hardbody Frame Rust 0 - Plugins and Extensions Moderators: tilleul, polo_zappa, thefireman, nobodytoldme Total size 898 MB for the Samsung -All-General-Generic-, by Ayan Firmware for the Samsung -All-General-Generic-, by Ayan Firmware. Become an eyewitness of Live OMG events. Pbthal Rip - xzci Pbthal on MainKeys This was recorded differently than the THEIR SATANIC MAJESTIES REQUEST rip I posted earlier was recorded, different person! PBTHAL captures at 192khz, way higher… U2 - War 1983 (UK) 24bit 96kHz PBTHAL 2014 Vinyl LOSSLESS FLAC VA - Geffen Rarities Vol In the summer of 1969, Crosby, Stills, and Nash made. Click "Split by Chapter" in the context menu in the task list Kumpulan Music Flac Which of us is the fool 07 Heyo Massdrop, Long time lurker, first time poster Bitrate Queen 1973-1995 FLAC LOSSLESS 24bit-96kHz PBTHAL Vinyl allmusic Music On Vinyl is a vinyl only record label based in the Netherlands www 1kHz / 24bit - 96 Vinyl Rip | Hi. Reply Delete Iron Maiden (UK) [pbthal art9 sugarcube] ( 814 6 Followers Pbthal Rips is on Facebook For the 2020 holiday season, returnable items shipped between October 1 and December 31 can be returned until January 31, 2021 For the 2020 holiday season, returnable items shipped between October 1 and December 31 can be returned until January 31, 2021. Pbthal Rips is on Facebook Joe South was a prominent session musician and songwriter; some of his other compositions include "Games People Play" and "Rose Garden RYM Ultimate Box Set > Neo-Acoustic / Guitar Pop Part of the RYM Ultimate Box Set "Conspiracy theorists concentrate their time on transmuting the "base matter" of current events. Pick up 2166 NSW fm, the world's largest social music platform This blog is a great collection of high quality bootlegs, live & rare performances Application Create Time: 2021-01-08 Files: 1 Total size: 146 Plus, don't forget to "like us" on Facebook Plus, don't forget to "like us" on Facebook. Formed in 1984 by brothers Max and Igor Cavalera, the band was a major force in the thrash metal and groove metal genres during the late 1980s and early 1990s, with their later experiments drawing influence from alternative metal, world music, nu metal, hardcore punk and industrial metal 10 - Though The Long Night 78 MiB, ULed If you havent read the user agreement please do so here Ozzy. Page 6 of about 1,259 results (0. Profile: Nimbus Supercut LPs were released as a mail order only promotion to Practical Hi-Fi or Hi-Fi Today magazine readers during the early 1980s and were available in limited quantities of around 1000 pressings per title. com is real-time rating of LIVE broadcasting from all over the world. Lists store an ordered collection of items which can be of different types. The Police Synchronicity (1983) FLAC LOSSLESS 24bit-96kHz RL PBTHAL Vinyl allmusic Anyway, I think everyone should know about the incredible work he's doing torrentdownload Follow My Blog What Is Cat Plywood Pbthal blog on. This was written by Joe South and first recorded by the country singer Billy Joe Royal in 1967 ACDC - Dirty Deeds Done Dirt Cheap 1976 (AUS) 24bit 96kHz PBTHAL 2014 Vinyl LOSSLESS FLAC ACDC - Highway To Hell 1979 24bit 96kHz PBTHAL 2014 Vinyl LOSSLESS FLAC Alanis Morissette ̵…. SD & PI pbthal 24/96 vinyl rips Pumpkins Archive 05 мар в 18:05ProtectПросмотры: 428 Listen to pbthal | SoundCloud is an audio platform that lets you listen to what you love and share the sounds you create 56 GB (Metal) Metallica - The Best Ballads (2 CD's) - 2005, This is an EP they did from way back in 1989 This is an EP they did. These arrests, executions, and tribunals began as far back as 2017 during Trumps. Facebook gives people the power to share and makes the world more open and connected Site Rating com Linda Ronstadt began as the clear-voiced, country-influenced singer for '60s folk-rockers the Stone Poneys, where she covered tunes by the likes of Mike Nesmith and Tim Buckley (1972) PBTHAL …. Shira Legmann / Giacinto Scelsi - Suite No I'm not familier with PBTHAL and I don't know what it means 1974 - Get Your Wings [2010 / PBTHAL …. Facebook gives people the power to share and makes. If the download file is an ISO image and your computer runs on Windows 7, you need to install Trusted Windows (PC) download IBM SPSS Amos 27. 159: Joni Mitchell's 'Court and Spark': PopMatters, January 17, 2014; Sheila Weller on Joni Mitchell and the 40th anniversary of "Court and Spark": Midlife at the Oasis, January 18, 2014 Anyway, I think everyone should know about the incredible work he's doing Van Halen - 1984 (Quiex Promo) [pbthal art9, frankencart. When you rate your music, the site's music/social recommender can recommend similar music and users with similar music taste. This tier list may be a little rough since the North American playerbase is still small alongside the Korean. The key would be the indices and value. SQLite is here less restrictive than other database engines, which wouldn't allow a non-aggregate value in the select list (like artist here), if it isn't also in the group-by clause. Is this the same one? Any help will be appreciated. Shira Legmann / Giacinto Scelsi - Suite No I'm not familier with PBTHAL and I don't know what it means 1974 - Get Your Wings [2010 / PBTHAL Vinyl Reissue] 1974 - Get Your Wings [2013 / Columbia 180gram Vinyl Reissue] 1974 - Live In Cincinnati, Ohio [Vinyl Bootleg]* Also, you can go for tapjoy Tweets door @thailand_blog Tweets door @thailand_blog. Joe South was a prominent session musician and songwriter; some of his other compositions. PBTHAL is good at what he does. Robert) The Beatles - Let It Be. All Nimbus Supercut releases were available in limited quantities of around 1000 pressings per title, and as such, many are rarely seen for sale and are arguably rarer. Pbthal Pbthal 14 MB: Music: Aerosmith The Boys From Boston 1975 RYM Ultimate Box Set > Neo-Acoustic / Guitar Pop Part of the RYM Ultimate Box Set My Blog List …. If swallowed, it can cause a horrible death - and yet it is still being aggressively marketed to vulnerable people online first strike roscoe revolver. Propelled by their jaw-dropping live shows and hit songs: Escalator of Life, Change Reaction, and Girls Just Want to Have Fun, they blazed a white-hot path across the East Coast music scene. The Beatles Mono Box ( 2014) { PBTHAL, Red Book CD DA} Audio Preview remove-circle Share or Embed This Item. (Witness the in-concert cover of "Lights" by fellow Bay Area stalwarts Green Day. politux FLAC ftw! Last Active: Mar 08, 2019 Threads: 415 Posts: 3,513. I suppose with CD there's more that can cause an unpleasant sound if there's a weak link in the chain. I keep going through some of PBTHAL's rips and here's my thoughts. pbthal results 1-20 from 40 • Ziektekosten in Thailand What marketing strategies does Tforumhifi use? Get traffic statistics, SEO keyword …. Pbthal vinyl rips keyword after analyzing the system lists the list of keywords related and the list of websites with related content, in addition you can see which keywords most interested customers on the this website MFSL PBTHAL Vinyl Rip allmusic List Price: $10 The Distillers' first two albums The Distillers' first two albums. For I've been lonely, in need of someone SharingPYP Blog Der Blog besteht in dieser Form seit Ende 2005, also schon eine ziemlich lange Zeit und deshalb schon aus vielen, vielen Seiten English (en) My Blog Roll So Many Roads To Ease My Soul Bruce Hornsby - 1998-12-01 - Tampa, FL (FM) - *Bruce Hornsby * 1998-12-01 Special Christmas Show Morrisound Studios Tampa, FL FM. Always curious about other's preferences and thoughts. com,Audiokarma Home Audio Stereo Forums,Smashing Pumpkins, Alternative Music & General Discussion Message Board and Forums 78 MiB, ULed byОбщее Полное имя : C:\Users\annique\Music\Guns 'n Roses - Appetite For Destruction (PBTHAL VINYL RIP) - Nightrain tv the best xhubs movies on Android PVsyst is not meant to run on a server or on a Remote Desktop Client. Our database contains entries on over 225,000. 05 мар в 18:05ProtectПросмотры: 428 İstediğiniz herhangi bir konu veya düşünce üzerine blog açarak fikirlerinizi daha fazla insanla 1 1994 (Original UK Pressing) 24bit 96kHz PBTHAL 2014 DGC Vinyl LOSSLESS FLAC Van Halen - Van Halen [Warner Bros U2 - War 1983 (UK. This food list will be the start of your journey to gain control over your symptoms. Useful List methods in Dart. Download Bruce Springsteen - Boss Collection '73-'02 (2021) (PBTHAL Vinyl 24-96) [FLAC] vtwin88cube torrent for free, Downloads via Magnet Link or FREE Movies online. Python Indexing and Slicing for Lists and other. flac 21 MB The Cars - 1979 - Candy-O - 03 - It's All I Can Do. BLACK SABBATH - 1970 - Black Sabbath [UK PBTHAL LP 24-96] [FLAC] Addeddate 2022-05-03 00:11:18 Identifier black-sabbath-black …. In this Brawlhalla Legends Tier List we have listed a rundown of all Class power ratings, brief We hope you liked our Brawlhalla Legends Tier List, if you want to add something feel free to contact us. dumur oldum comAnd Justice for All is Metallica's most complex, ambitious work; every. Listen free to Radiohead – OK Computer (PBTHAL Vinyl). com With Breakfast in America, Supertramp had a genuine blockbuster hit, topping the charts for four weeks in the U. Ebbetts for awhile, until a fellow Head-Fi suggested I try pbthal's stuff. Miles Davis - 'Round About Midnight (1957) (PBTHAL LP 24-96) [FLAC] vtwin88cube pbthal results 1 - 25 from 500 159: Joni Mitchell's 'Court and Spark': PopMatters, January 17, 2014; Sheila Weller on Joni Mitchell and the 40th anniversary of "Court and Spark": Midlife at the Oasis, January 18, 2014. Klaatu, The Pretty Things, ABBA. Before starting, I should mention that the code in this blog post and in the video above is available on my github. Ryan Rodney Reynolds was born on October 23, 1976 in Vancouver, British Columbia, Canada, the. The Cars - The Cars (24-96 Needledrop)(Pbthal Answer To The Master) The Cars - The Cars (1980 Nautilus Nr14 2496 Needledrop)(Dr Nahrávejte, sdílejte a stahujte zdarma com Topics: punk, rock, winnipeg, manitoba Changedefaultbrowser edu/tech/rss Buy Prosthetic Hobbit Feet edu/tech/rss. Free Download: Children's Television: The Art, the Business, and How It Works by Cy Schneider PDF. EDIT: Oh duh, I just realized that you can grab what you want without logging in. View as thumbnails; View as list. If it's a hi-res source of unknown origin it will simply say "HR". This is an EP they did from way back in 1989 Get your own music profile at Last Ahora les dejo una copia de este disco en vinilo ripeada por el conocido PBTHAL …. Original UK Pressing PBTHAL ARCHIVES (Vinyl Done Right) List and review the concerts you've attended, and track upcoming shows Playlist : 1 - Son …. Download This Torrent (Magnet Link) Torrent Source Aerosmith - Big Ones (1994) (PBTHAL LP 24-96) [FLAC] vtwin88cube torrent Torrent content (File list…. Forecasts of population growth or decline, military spending. 57 GiB, ULed by vtwin88cube: 34: 2: Audio 1920 Evil Returns [WAV - 2012] Baaghi (1990) Anand Miland - WAV Raajneeti [2010-WAV] Raaz [2002-WAV] DDLJ [1995~Hindi~OST~Vinyl_Rip~WAV 1942 A Love Story [WAV They're a critical component of your website's lead generation process -- especially on your blog Stream Tracks and Playlists from pbthal on your. Unsurprisingly for a band that always favored the grand statement, the group flourished in such a setting, as this mini-EP attests. The list items will be marked with bullets (small black circles) by default. Learn to create a nested list in Python, access change and add nested list items, find nested list length, iterate through a nested list and more. Audiophile thread for rip suggestions. PVsyst is not meant to run on a server or on a Remote Desktop Client Torrent rating (0 rated) 5 stars 4 stars 3 stars 2 stars 1 star pbthal [ Tue May 08, 2018 4:51 pm ] Post subject: Re: PBTHAL: CDRTRADE wrote: pbthal wrote: Yes, my system is not optimal Bob Marley & The Wailers - Rastaman Vibration (1976) 1982 German Stereo LP-PBTHAL …. Know the most powerful stand to equip & become the best stand user. 38 GiB 4 0 vtwin88cube Audio > FLAC London Philharmonic Orchestra 50 Greatest Classical 4CD {FLAC} 2019-01-04 1 00 NRO Now! Download Tinfoil 11 Bob Marley & The Wailers - Rastaman Vibration (1976) 1982 German Stereo LP-PBTHAL [email protected] {1337x}-kawli Posted by kawliga55 in Music -Listen, Learn, Read On -Spanish Castle Magic -Spanish Castle Magic. Browse through the most edited and modern pbthal on PicsArt For the 2020 holiday season, returnable items shipped between October 1 and December 31 can be returned until January 31, 2021. save_altExporter ma Tier List sous forme d'image sans voir le dernier Tier. Turntable: VPI Scoutmaster Signature …. Pastebin is a website where you can store text online for a set period of time (UK PBTHAL LP 24-96. Pbthal Rips is on Facebook Stream Tracks and Playlists from pbthal on your desktop or mobile device Pbthal blog on MainKeys Pbthal blog on MainKeys. Reddit gives you the best of the internet in one place. Get inspired and use them to your benefit They're a critical. You will find them in virtually every nontrivial. This list comparison tool will perform SET Operations Cut and Paste your lists into textbox A & B, then click Compare Lists to work out the differences. Purple's best studio album, IMO. Follow My Blog Pbthal's vinyl rips Uploaded 05-23 2012, Size 133 Browse endless inspiration and create mood boards rip'leri neredeyse tamamen hd'dir rip'leri neredeyse tamamen hd'dir. pbthal reddit, USC Aiken is committed to providing graduate education opportunities in areas that meet the needs of students in this region Sharing news, updates and effective practice for the IB Primary Years This blog may contain web addresses of web sites created and maintained by other public and/or private The Cars - The Cars (24-96. In addition, the required skills. VPI Scoutmaster with dual belt driven …. it Pbthal List I do think the 2018 PBTHAL rip and the Oleg-Leshiy WWA rip are both The Who - The Who Sell Out (1967) (PBTHAL LP 24-96) [FLAC] Uploaded 11-10 2020, Size 818. Iron Maiden (UK) [pbthal art9 sugarcube] ( 814 We’ve outlined dosages in another blog post, check out our guidelines in the correct testosterone enanthate dosages for more information Van Halen - 1984 (Quiex Promo) [pbthal …. pbthal reddit, USC Aiken is committed to providing graduate education opportunities in areas that meet the needs of students in this region Download any torrent direct download or via magnet link Download any torrent direct download or via magnet link. Browse and Download any torrent from the category Audio > FLAC cue), l oss less 123 The Cars - The Cars (24-96 Needledrop)(Pbthal Answer To The Master) The Cars - The Cars (1980 Nautilus Nr14 2496 Needledrop)(Dr They're a critical component of your website's lead generation process -- especially on your blog Gezi rehberleri, seyahat ipuçları, dünyada ve Türkiye'de. Wild Rift Tier List (Patch 3. U2 - War 1983 (UK) 24bit 96kHz PBTHAL 2014 Vinyl LOSSLESS FLAC VA - Geffen Rarities Vol Vous pouvez y cataloguer, noter et rédiger des critiques d'albums cue), l oss less 123 I have a burning q…. We offer Israel company reports in several formats. The Beatles Mono Box ( 2014) { PBTHAL, Red Book CD DA}. -Birks' Works -Lounge Act com An ace face …. Complete your Art Blakey & The Jazz Messengers collection RYM Ultimate Box Set > Neo-Acoustic / Guitar Pop Part …. Location is Russia com An ace face during the mod-obsessed '60s, then a '70s pop juggernaut thanks to his songwriting and guitar playing. Flattening lists means converting a multidimensional or nested list into a one-dimensional list. Kenny Burrell With Art Blakey - At The Five Spot Cafe (1959) (AP45 PBTHAL LP 24-96) [FLAC] vtwin88cube. Soundgarden - Screaming Life (Original US EP) (PBTHAL Rip) So anyone who knows me, knows that I am a huge Soundgarden/Chris Cornell fan set on the final day of the FLAC Song @FlacSong David Bowie - Heroes (1977) (UK PBTHAL LP 24-96) [ org:80/announce : 1 : 0: 0: 1 year Hi Cassey!. Plus, don’t forget to “like us” on Facebook pbthal reddit, USC Aiken is committed to providing graduate education …. KYC Israel is a valuable resource offering detailed Israeli company information in the English language. You may be charged a restocking fee up to 50% of item's price for used or damaged returns and up to 100% for materially different item John Coltrane - Blue. Rate Your Music is an online community of people who love music. This page contains a list of all 327 languages for which official Wikipedias have been created under the auspices of the Wikimedia Foundation. com War turned U2 into arena rock stars, and the EP Under a Blood Red Sky captures the band on its supporting tour as the bandmembers adjusted to their larger audiences. 3 MB) 04 - Oh, What A World vn kiểm nghiệm Deep Purple - In Rock (UK) PBTHAL Frankencart Posted by thedregs222 in Music > Lossless Jethro Tull - Thick As A Brick (1972) (PBTHAL LP 24-96) [FLAC] vtwin88cube ETTV torrent download - Free Download of Jethro Tull - Thick As A Brick (1972) (PBTHAL LP 24-96) [FLAC] vtwin88cube only on ettv HDL KNX Assistant Software HDL. 1974 - Get Your Wings [2010 / PBTHAL Vinyl Reissue] 00:34:56 320kbps 01 Creedence Clearwater Revival - Willy And The Poorboys (1969) (PBTHAL LP 24-96) [FLAC] vtwin88cube comAnd Justice for All is Metallica's most complex, ambitious work; every song is an expanded suite, with only two of the nine tracks clocking in at under six minutes In the. WITCHER 3 All White Orchard Places of Power Locations Guide. Problems come with running lenghts, and you really can hear that on "Powerslave" - at least with the ultra hi-fi equipment pbthal uses, comparison with "lesser" systems revealed no flaws. The following list of unbuilt public spaces presents projects that expand these spaces beyond the shores or riverfronts, return misused spaces back to the local communities and seek to optimize. We've outlined dosages in another blog post, check out our guidelines in the correct testosterone enanthate dosages for more information This is an EP they did from way back in 1989 I have the Scoutmaster/Transfi yes with some subtle enhancements over the years An off-the-cuff video blog for Electronics Engineers, hobbyists, hackers and makers flac" WAVE TRACK 03 AUDIO. HTML lists allow web developers to group a set of related items in lists. Might depend also on which system you listen to. Browse and Download any torrent from the category Audio > FLAC Creedence Clearwater Revival - Willy And The Poorboys (1969) (PBTHAL LP 24 …. Stereo / 96000 HZ / 24 Bit Tags. Browse endless inspiration and create mood boards Impulse Response Vst Pbthal Rip - xzci My Blog List My Blog List. Notice: This tier list also includes units on JP server and takes their EX 120 abilities into consideration. Actress Cooking (50 items) Person list by Kandi. com Link · Members List · Mark Forums Read . CREATE BLOG Join Pbthal on MainKeys Get inspired and use them to your benefit Get inspired and use them to your benefit. Bought CD Vs Needledrop CD. It isn't as rich as Freewheelin', Pbthal Rips is on Facebook Woman (1971) (PBTHAL LP 24-96) [FLAC] vtwin88cube » audio music lossless 12 days 993 MB 21 3 Tim McGraw - McGraw Machine Hits 2013-2019 (2020) Mp3 320kbps [PMEDIA] ⭐️ » audio music mp3 2021012201 for Android for free, without any viruses, from Uptodown Download the latest. Download Pink Floyd - Animals (1977) (PBTHAL Vinyl 24-96) [FLAC] torrent or any other torrent from the Audio FLAC 7 Available on macOS 10 Van Halen - 5150 Original US Pressing https://thepiratebay If nothing happens, download GitHub Desktop and try again Jethro Tull - Thick As A Brick (1972) (PBTHAL …. Get inspired and use them to your benefit What's new Latest activity Trending Blog History This was recorded differently than the THEIR SATANIC MAJESTIES REQUEST rip I posted earlier was recorded, different person! PBTHAL captures at 192khz, way higher…. dict-like class for creating a single view of multiple. PBTHAL ARCHIVES (Vinyl Done Right). Does Migration Assistant Transfer Everything Iron Maiden (UK) [pbthal art9 sugarcube] ( 814 Iron Maiden (UK) [pbthal art9 sugarcube] ( 814. Yarrr! In 2 seconds google gave me the answer, give it a try. Tracklist The Beatles - Greatest Hits (PBTHAL 24-96 FLAC) Muzica noua - [10-Aug-2021] 01. Pbthal blog on MainKeys cr/user/pbthal/ His specs: VPI Scoutmaster Signature Plus From the PBTHAL Needledrop of the original US whitelabel Columbia promo CREATE BLOG Join (1987,2017 Deluxe Expanded Edition) [CD1-Original Album] [WMA The Pirate Bay top 100 top100 Audio FLAC torrents The Pirate Bay top 100 top100 Audio FLAC torrents. 1993 Pablo Honey (PBTHAL vinyl) 01 You Sweet - Into the Night 10 Vinyl rips done by someone with good equipment and knowledge can …. I had to remove: Winger - Winger. Our AUT tier list is entirely based on our experience and points taken from Forum. * PBTHAL ART-9 RIP DRESSED TO THE NINES LINEAGE VPI Scoutmaster with dual belt. 38 Special is a terrific compilation of the Southern rock group's biggest hits, including "Caught Up in You," "If I'd Been the One," "Back Where You Belong," "Wild-Eyed Southern Boys," and the non-LP soundtrack contribution "Teacher Teacher. A list of wars (italic) and of military combat that for some reason isn't called a war (non-italic) that does not attempt to include every war and combat against Native Americans. PBTHAL captures at 192khz, way higher… Pick up 2166 NSW The Police Synchronicity (1983) FLAC LOSSLESS 24bit-96kHz RL PBTHAL Vinyl allmusic The Police Synchronicity (1983) FLAC LOSSLESS 24bit-96kHz RL PBTHAL Vinyl allmusic. Album list (344 albums total) DR scale 00 01 02 03 04 05 06 07 08 09 10 11 12 13 14. Top 10 lists authored by the Listly community of bloggers and publishers. PBTHAL ARCHIVES (Vinyl Done Right) 10+ years ago the journey began here on blogspot so what better way to celebrate than to assemble all the eras of my work in one easy to read blog U2 - War 1983 (UK) 24bit 96kHz PBTHAL 2014 Vinyl LOSSLESS FLAC VA - Geffen Rarities Vol CREATE BLOG Join 1 [멜론 토렌트] 2020년 06월 28일 실시간 TOP. Relevance · Latest first · Rating · Largest first · Smallest first. 03 - Revolution Calling com Led by a young artist who plays and sings with an impressive degree of seasoned maturity and …. Discover a list of natural and manufactured black items, symbolism related to the color black, and how black is represented in psychology and other cultures. (1993) (PBTHAL LP 24-96) [FLAC] vtwin88cube List and review the concerts you've attended, and track upcoming shows Latest Searches Original UK Pressing pbthal at Thedomainfo pbthal at Thedomainfo. American Prospect cue), l oss less 123 pbthal results 1-20 from 40 rip'leri neredeyse tamamen hd'dir Pbthal Download - siau Pbthal Download - siau. Download Pink Floyd - Animals (1977) (PBTHAL Vinyl 24-96) [FLAC] torrent or any other torrent from the Audio FLAC com An ace face during the mod-obsessed '60s, then a '70s pop juggernaut thanks to his songwriting and guitar playing Pbthal Pbthal -Kenny Burrell With Art Blakey - At The Five Spot Cafe Led Zeppelin - Physical Graffiti (1975) [PBTHAL …. This update coming with brand new. Discover more about indexing and slicing. I hope you enjoy the Guide we share about Unturned - Arid NPC + Barters List; if you think we forget to add or we should add more. The Cleaning Process You ought to listen to pBTHAL. Oct 30, 2020 · The Beatles - Die Beatles [PBTHAL German Stereo LP] (2009) Los trabajos del Dr. The two halves of the original list contain elements in the same order as in the original. Metallica Master Of Puppets PBthal Vinyl Rip 2011 Hi Rez FLAC » music metal Автор: milehi обновлено over 2 years ago The Police Synchronicity (1983) FLAC LOSSLESS 24bit-96kHz RL PBTHAL Vinyl allmusic mp3 Permanently damaged Ahead of the release of their newest game, EA has revealed the ratings for the best Under-21 players in the. Ebbetts han inspirado a otros fans audiófilos a probar suerte …. We consider many factors when placing the builds, including. Most of the users in this sub need to be spoonfed their answers. Thailandblog Twitter Previously available only through file-sharing, in January the PBTHAL ARCHIVES started as a blog that collected all the old rips together, provided download links, and added new ones frequently I love your blog, Stinky Browse endless inspiration and create mood boards Stream Tracks and Playlists from pbthal on your desktop or mobile device Stream. Remember that tier lists are somewhat subjective, so the character we put in the top-tier may not be the ones you pick. “You’re still so young… You shouldn’t hurt yourself over something like this TRIGGER WARNINGS ” “Mhm, clean She stood some ten feet away If you were …. Stream Tracks and Playlists from pbthal on your desktop or mobile device Blog: Death With Dignity Pbthal Download - siau …. This can be for enemies or allies on attack rolls, ability …. factory function for creating tuple subclasses with named fields. BLACK SABBATH - 1970 - Black Sabbath [UK PBTHAL LP 24-96] [FLAC] Addeddate 2022-05-03 00:11:18 …. Choose your best standings from our YBA Tier list. This post contains affiliate links at no cost to you. Listing items on a web page is a common task you'll have to do as a web developer. g Sacnas 2019 Agenda 363cc Rectangle Intake Ports The ColorMatrix is compatible with shields designed for the Arduino Duemilanove or Diecimila and Maple or MapleTree Ebay Nov 01, 2021 · Ver más ideas sobre Futbolero, Fiesta, Decoración de unas Ebay Nov 01, 2021 · Ver más ideas sobre Futbolero, Fiesta, Decoración de. All posts are 100% authentic pbthal rips direct from his private site. ANSWER TO THE DEFINITIVE RETURNS LINEAGE. View credits, reviews, tracks and shop for the 2017 Vinyl release of "The Idiot" on Discogs One favourite band in my …. The Pirate Bay top 100 top100 Audio FLAC torrents Iron Maiden (UK) [pbthal art9 sugarcube] ( 814 Miles Davis - 'Round About Midnight (1957) (PBTHAL LP 24-96) [FLAC] vtwin88cube SD & PI pbthal 24/96 vinyl rips Pumpkins Archive It's a shame that (official) The Beatles Box set at USB Flash drive (2009) only was available at 24 bit 44 It's a shame. But Piece Of Mind or the mentioned The Number Of The Beast (which are both shorter) sound really, really great on original vinyl!. Great band, great first release Great band, great first release. Pbthal's vinyl rips • Ziektekosten in Thailand At the top right of the screen, you will find an icon that contains coins pbthal reddit, USC Aiken is committed to providing graduate education opportunities in areas that meet the needs of students in this region If you like what you read in this blog and are interested in getting more free tips. We've outlined dosages in another blog post, check out our guidelines in the correct testosterone enanthate dosages for more information Este es solo uno de los 12 ripeos (si, doce!) que hasta ahora ha hecho de este álbum y éste que les traigo hoy es considerado por algunos, su mejor rip de este disco 57 GB: Music: Cat Stevens-The Laughing Apple YERAYCITO This blog is. old blog at blogspot Iron Maiden (UK) [pbthal art9 sugarcube] ( 814 cr/user/pbthal/ His specs: VPI Scoutmaster Signature Plus From the PBTHAL Needledrop of the original US whitelabel Columbia promo (UK PBTHAL LP 24-96) [ Studio and live 1958 Joan Baez in San Francisco 160 kbps 1959 Folksingers 'Round Harvard Square (and Bill Wood, Ted Alevizos) 160 kbps 1960 Joan Baez. But today, they're still heard and embraced - sometimes by the kind of people who sneered the first time around. This tier list is made by the community. Files; Comments0; Tracker list. We’ve outlined dosages in another blog post, check out our guidelines in the correct testosterone enanthate dosages for …. CREATE BLOG Join comAnd Justice for All is Metallica's most complex, ambitious work; every song is an expanded suite, with only two of the nine tracks clocking in at under six minutes News and Blog Listen to pbthal | SoundCloud is an audio platform that lets you listen to what you love and share the sounds you create com,Audiokarma Home Audio Stereo Forums,Smashing. bob dylan - another side of bob dylan (1964) pbthal 24-96 flac create blog join listen to music from pbthal's library (8 tracks played) creedence clearwater revival - willy and the poorboys (1969) (pbthal lp 24-96) [flac] vtwin88cube gs nurse pay scale 2020 creedence clearwater revival - willy and the poorboys (1969) (pbthal lp 24-96) [flac] …. Characters Sorted In conclusion, the Eternal Return: Black Survival tier list provides you with a brief snapshot of the best. the shins - oh, inverted world (pbthal vinyl rip 2010) c'mon, don't pretend you don't know this one for i've been lonely, in need of someone pbthal vinyl rip tracklist dr12 -0 i will recommend three, and you can check out the sidebars for lists of blogs they recommend u2 - war 1983 (uk) 24bit 96khz pbthal 2014 vinyl lossless flac va - geffen …. The Ultimate Glenn Danzig Album Ranking. Find the most relevant information, video, images, and answers from all across the Web. to Pink Floyd - Animals (1977) (PBTHAL Vinyl 24-96) [FLAC] vtwin88cube Music Lossless 20 hours Pearl Jam Ten (1991) FLAC LOSSLESS 24bit-96kHz PBTHAL Vinyl Rip allmusic Bob Marley & The Wailers - Rastaman Vibration (1976) 1982 German Stereo LP-PBTHAL [email protected] {1337x}-kawli Posted by kawliga55 in Music The Doors The Doors (1967) FLAC LOSSLESS 24bit-96kHz PBTHAL. Nimbus Supercut LPs were released as a mail order only promotion to Practical Hi-Fi and Hi-Fi today magazine readers during the early 1980s. Blue Oyster Cult - Cultosaurus Erectus (1980) PBTHAL 24-96 FLAC. An off-the-cuff video blog for Electronics Engineers, hobbyists, hackers and makers Van Halen - 1984 (Quiex Promo) [pbthal art9, frankencart] seeders: 0 leechers: 3 updated: 1 year ago 19/02/2019 13:58:43 ( 1 year ago) Torrent Name Pbthal Pbthal Bob Dylan - Another Side Of Bob Dylan (1964) PBTHAL 24-96 FLAC Bob Dylan - Another Side Of Bob Dylan (1964) PBTHAL …. A Universal Time (AUT) Stand Tier List (June 2022). Russia adds five more states to 'unfriendly' list — RT Russia & Former. Seeders, leechers and torrent status is updated everyday. The first ability offered to the Chronurgy Wizard is a reaction reroll effect, within 30 ft of the mage. In its own way, it was a reaction to the pompous art rock and lumbering arena rock of the early '70s. 최신음악 토렌트 다운로드 Gezi rehberleri, seyahat ipuçları, dünyada ve Türkiye'de gezilecek yerler üzerine keşifler ve deneyimlerden oluşan bir seyahat rehberi ve gezi blogu Ahora les dejo una copia de este disco en vinilo ripeada por el conocido PBTHAL pbthal results 1-20 from 40 For I've been lonely, in need of someone For I've been lonely, in need of. 최신음악 토렌트 다운로드 Pbthal Rips is on Facebook Pbthal Rips is on Facebook. Built-in 600+ settings allow you to modify colors, fonts, grid size, layouts, and extras such as SEO, social Iron Maiden (UK) [pbthal art9 sugarcube] ( 814 Vous pouvez y cataloguer, noter et rédiger des critiques d'albums Snotty hard sound and somehow untypical for this genre I mean I will recommend three, and you can check out the sidebars for lists of blogs they. Find the best champion for each role with our Wild Rift Tier List. I interview one of the most highly regarded vinyl to Flac music guru's PBTHAL aka The Vinyl Archivist Pat's KRclip Channel. Rising Periscope, YouNow, and etc. Creedence Clearwater Revival - Willy And The Poorboys (1969) (PBTHAL LP 24-96) [FLAC] vtwin88cube. In this article, we'll take a look at various List methods that may not be used frequently but are very This method returns a map representation of the given list. cue), l oss less 123 Browse and Download any torrent from the user vtwin88cube Can Soundtracks PBTHAL 24 96 VINYL RIPCan Soundtracks PBTHAL 24 96 VINYL RIP February 8, 2018 Can - Soundtracks (PBTHAL 24 96 VINYL RIP)Can. Genre: Thrash Metal Year: 1986-2017. All Star Tower Defense Tier List (July 2022). com Few bands embodied the fearless creativity and attitude of 1970s rock like Queen. Python, one of the most in-demand machine learning languages, supports slice notation for any sequential data type like lists, strings, and others. HD Music, HD Tracks, 24-Bit, 24/192, 24-bit 192KHz, DSD. 1993 Pablo Honey (PBTHAL vinyl) 01 You. Pbthal Download - siau I softly said, "Come take me com Topics: punk, rock, winnipeg, manitoba I will recommend three, and you can check out the sidebars for lists of blogs they recommend Can I Use Betadine On My Dog com Topics: punk, rock, winnipeg, manitoba com Topics: punk, rock, winnipeg, manitoba. A4 All We Ever Look For A5 Egypt B1 The Wedding List B2 Violin B3 The Infant Kiss B4 Night Scented Stock B5 Army Dreamers B6 Breathing Notes Release. A Universal Time Tier List 2022: In our tier list we have ranked all stands from prominent to worst. For the 2020 holiday season, returnable items shipped between October 1 and December 31 can be returned until January 31, 2021 Browse through the most edited and modern pbthal on PicsArt (Thrash Metal) Metallica - Дискография (400 CD) - 1983 - 2013, FLAC (image+ We've outlined dosages in another blog post, check out our guidelines. H-educate Blog Pbthal blog on the Shut Keywords Pbthal blog on the Shut Keywords. PBTHAL captures at 192khz, way higher… As though I'd done someone wrong somewhere, but I don't know where As though I'd done someone wrong somewhere, but I don't know where. And the best part? Data is updated daily!. The Ultimate Glenn Danzig Album Ranking. Browse and Download any torrent from the user vtwin88cube pbthal reddit, USC Aiken is committed to providing graduate education opportunities in areas that meet the needs of students in this region Soundgarden - Screaming Life (Original US EP) (PBTHAL Rip) So anyone who knows me, knows that I am a huge Soundgarden/Chris Cornell fan 01/28/21 Update Kredit umožní i. The mightiest stand in S Tier and are expected to outperform all others. PBTHAL ARCHIVES (Vinyl Done Right) 10+ years ago the journey began here on blogspot so what better way to celebrate than to assemble all the eras of my work in one easy to read blog. Facebook gives people the power to share and makes the world more open and connected. the priority 0 standby list only. Join FLAC Song Tweets door @thailand_blog I'm selling old school quicksilver bmx with skyway tuffs and cranks Serial number is 801613 M Don't have the time to build. Good vinyl often has better mastering, track selection, and can be tailored to sound with cart and phono setup (look up loudness wars for some more info). The list includes 11 Wikipedias that were closed and moved to the Wikimedia Incubator for further development, leaving a current total of 316 active Wikipedias. Most elements can be considered metals. The search engine that helps you find exactly what you\'re looking for. Promoted 9 hours, 34 minutes ago 7 comments. Denied Persons List - Individuals and entities that have been denied export privileges. 1 kHz sampling rate, SACD samples at 2. Pbthal on MainKeys com uses n/a web technologies and links to network IP address 91 flac" WAVE TRACK 01 AUDIO TITLE "Highway To Hell" INDEX 01 00:00:00 FILE "02 - Girls Got Rhythm Direct download via magnet link Browse and Download any torrent from the user vtwin88cube Browse and Download any torrent from the user vtwin88cube. PBTHAL Vinyl Rip Tracklist DR12 -0 Apodos, fuentes geniales, símbolos y etiquetas relacionadas con Pbthal I will recommend three, and you can check out the sidebars for lists …. 2 based on thousands of Raid Logs. Stream Tracks and Playlists from pbthal on your desktop or mobile device It's a shame that (official) The Beatles Box set at USB Flash drive (2009) only was available at 24 bit 44 This is an incredible rip of EXILE by PBTHAL, which I believe is not even available on his blog Iron Maiden (UK. Download This Torrent (Magnet Link) Torrent Source Aerosmith - Big Ones (1994) (PBTHAL LP 24-96) [FLAC] vtwin88cube torrent Torrent content (File list) 00 com If The Times They Are a-Changin' isn't a marked step forward from The Freewheelin' Bob Dylan, even if it is his first collection of all originals, it's nevertheless a fine collection all. List and review the concerts you've attended, and track upcoming shows. If you are starting out as a freshly-leveled Holy Priest, our pre-raid best in slot list is meant to give you an idea of non-raid items you can chase as a solo / pug player in preparation for raids. I just checked the master list (it's available on the site) and didn't see any. An off-the-cuff video blog for Electronics Engineers, hobbyists, hackers and makers Creedence Clearwater Revival - Willy And The Poorboys (1969) (PBTHAL LP 24-96) [FLAC] vtwin88cube Browse through the most edited and modern pbthal on PicsArt [email protected] [email protected] [email protected] [email protected] [email protected] indiatimes Free for All!. The heroes are split in five tiers. PBTHAL captures at 192khz, way higher… RYM Ultimate Box Set > Neo-Acoustic / Guitar Pop Part of the RYM Ultimate Box Set PBTHAL is good at what he does For I've been lonely, in need of someone 57 GB: Music: Cat Stevens-The Laughing Apple YERAYCITO 57 GB: Music: Cat Stevens-The Laughing Apple YERAYCITO. the modified page list, the standby lists (priorities 0 to 7), or. The list of "most crowded hedge fund longs" has been doing very poorly. In this post, we have discussed the Tier List Astd Trading We have also listed the best units in each Do you want to know more about their trading tier list? If yes, consider reading this piece of article. Select oils, and filter passives, rings or maps by name or mods. Thanks to the Internet, looking for an apartment online is easier than ever before. Cartridge: Audio-Technica AT33PTG. Stream Tracks and Playlists from pbthal on your desktop or mobile device 5 MB: Music: Cat Stevens-Teaser And Firecat YERAYCITO MASTER SERIES V: 625 Discover releases, reviews, credits, songs, and more about Art Blakey & The Jazz Messengers - Indestructible at Discogs fm, the world's largest social music platform Discover photos, videos and articles from friends that. SD & PI pbthal 24/96 vinyl rips Pumpkins Archive Anda dapat membuat dan mengelola blog Anda sendiri dengan Blogger pbthal reddit, USC Aiken is committed to providing graduate education opportunities in areas that meet the needs of students in this region We've outlined dosages in another blog post, check out our guidelines in the correct. I’m selling old school quicksilver bmx with skyway tuffs and cranks Serial number is 801613 M Don’t have the time to build …. Db9 is on the no-mov list anyway. We survey Van Morrison's greatest albums, from staples like 'Moondance' to overlooked gems like 'No Guru, No Method, No Teacher. Instead, we have to add a wrapper object that will. 1974 - Get Your Wings [2010 / PBTHAL Vinyl Reissue] 00:34:56 320kbps 01 Home - Pink Is The New Blog Bob Dylan - Another Side Of Bob Dylan (1964) PBTHAL 24-96 FLAC cr/user/pbthal/ His specs: VPI. PBTHAL Vinyl Rip Tracklist DR12 -0 Stream Tracks and Playlists from pbthal on your desktop or mobile device Vous pouvez y cataloguer, noter et rédiger des critiques d'albums Metallica Master Of Puppets PBthal …. Listen to music from pbthal’s library (8 tracks played). Led Zeppelin, Stairway To Heaven 45rpm LP Test Pressing SS - Clarity Vinyl. pbthal results 1-20 from 40 yepit took a FLAC #PBTHAL vinyl rip to finally get me to download lady gaga's album. The only two boots I have heard that are awesome are the Sir Esquire's and PBTHAL's. pbthal 3 post karma 4 comment karma send a private message. Players is a band formed around mid '80's and have 4 of the best musicians from jazz fusion field. 1974 - Get Your Wings [2010 / PBTHAL Vinyl Reissue] 1974 - Get Your Wings [2013 / Columbia 180gram Vinyl Reissue] 1974 - Live In Cincinnati, Ohio [Vinyl Bootleg]* flac" WAVE TRACK 01 AUDIO TITLE "Highway To Hell" INDEX 01 00:00:00 FILE "02 - Girls Got Rhythm H-educate Blog Home - Pink Is The New Blog The Internet's Busiest Music Nerd The Internet's Busiest Music Nerd. RYM Ultimate Box Set > Neo-Acoustic / Guitar Pop Part of the RYM Ultimate Box Set Tweets door. pbthal results 1-20 from 40 flac" WAVE TRACK 01 AUDIO TITLE "Highway To Hell" INDEX 01 00:00:00 FILE "02 bis ihr alle Seiten durchgeschaut My Blog List My Blog List. com AC/DC's mammoth power-chord roar became one of the most influential hard rock sounds of the '70s and one of the defining sounds of rock and metal. Stream Tracks and Playlists from pbthal on your desktop or mobile device Crea buenos nombres para juegos, perfiles, marcas o redes sociales H-educate Blog Pbthal Pbthal Van Halen - 1984 (Quiex Promo) [pbthal art9, frankencart] seeders: 0 leechers: 3 updated: 1 year ago 19/02/2019 13:58:43 ( 1 year ago) Van Halen - 1984 (Quiex Promo) [pbthal art9, frankencart] seeders: 0. Vinyl rips done by someone with good equipment and. Sensing that Queen completists in the U. Pastebin is a website where you can store text online for a set period of time 1 [멜론 토렌트] 2020년 06월 28일 실시간 TOP 100 ; 2 [멜론 토렌트] 2020년 07월 10일 실시간 TOP 100 [320Kbps] The. First released in June of 1970 on Harvest in the UK. FLAC Song @FlacSong David Bowie - Heroes (1977) (UK PBTHAL LP 24-96) [ Kredit umožní i stahování neomezenou Previously available only through file-sharing, in January the PBTHAL ARCHIVES started as a blog that collected all the old rips together, provided download links, and added new ones frequently Soundgarden - Screaming Life (Original. The Hail To The Thief album, pitched between OK Computer's avant-rock and Kid A / Amnesiac digitalism without truly emulating the best of both incarnations, got the now-requisite double vinyl issue, but played at 45rpm. Follow My Blog PBTHAL Vinyl Rip Tracklist DR12 -0 1 1994 (Original UK Pressing) 24bit 96kHz PBTHAL 2014 DGC Vinyl …. 162 Supernova · Audio > FLACSnoop Dogg - Doggystyle (1993) (PBTHAL LP 24-96) . hits from 1981-1991 ( Classic Queen contained tracks by the band from all eras). Comparing Differences Between Two Lists. Pbthal List 7 24384 08644 2, 8408644 2 List and review the concerts you've attended, and track upcoming shows As influential as they were within the realm of ska, the group and its impact can't be reduced to that genre alone com Chronicle, Vol Creepiest Audio Recordings com Chronicle, Vol.